#TITLE:Final Audition Episode 2-X;
#SUBTITLE:;
#ARTIST:Yahpp;
#TITLETRANSLIT:;
#SUBTITLETRANSLIT:;
#ARTISTTRANSLIT:;
#CREDIT:;
#BANNER:Banner.jpg;
#BACKGROUND:Title.png;
#LYRICSPATH:;
#CDTITLE:;
#MUSIC:Song.mp3;
#OFFSET:-1.250;
#SAMPLESTART:36.544;
#SAMPLELENGTH:11.940;
#SELECTABLE:YES;
#BPMS:0.000=170.000;
#STOPS:;
#BGCHANGES:-99.000=F29 - Yahpp - Final Audition Episode 2-X.avi=1.000=1=1=0,
99999=-nosongbg-=1.000=0=0=0 // don't automatically add -songbackground-
;
// cache tags:
#FIRSTBEAT:1.000;
#LASTBEAT:286.000;
#SONGFILENAME:Songs/SDO/Yahpp - Final Audition Episode 2-X/Yahpp - Final Audition Episode 2-X.sm;
#HASMUSIC:1;
#HASBANNER:1;
#MUSICLENGTH:104.155;
// end cache tags

//---------------pump-single - crazy_1----------------
#NOTES:
     pump-single:
     crazy_1:
     Hard:
     25:
     1.000,1.000,0.250,0.566,1.000,769.000,26.000,59.000,0.000,10.000:
00000
02000
00000
00000
,
00000
00000
03120
00000
,
20130
00000
00000
00000
00000
30102
00000
00000
,
00000
02103
00000
00000
,
00000
00000
03120
20130
,
00000
00000
00000
00000
,
00000
00000
00202
00000
00000
00000
00000
00000
00000
00000
00000
00000
00000
00000
00000
30303
,
00000
10101
00000
00000
00000
00000
00000
00000
00000
00000
00000
00000
00000
00000
00000
00000
,
00000
00000
00000
01000
00100
20000
00020
00000
00000
00000
00000
00000
,
00000
00000
00000
30030
00000
00000
10000
00000
00100
00000
02000
00000
00002
00000
00000
00000
00000
00000
00000
00000
00000
00000
00000
00000
,
00000
00000
00000
03003
00000
00000
01000
00000
00100
00000
20000
00000
00020
00000
00000
30030
00000
00000
10000
00000
00100
00000
02000
00000
,
00002
00000
00000
03003
00000
00000
01000
00000
00100
00000
20000
00000
00020
00000
00000
00000
00000
00000
00000
00000
00000
00000
00000
00000
,
00000
00000
00000
30030
00000
00000
00010
00000
00100
00000
00002
00000
02000
00000
00000
03003
00000
00000
00001
00000
00100
00000
00020
00000
,
20000
00000
00000
30030
00000
00000
00010
00000
00100
00000
00002
00000
02000
00000
00000
03003
00000
00000
00001
00000
00100
00000
00020
00000
,
20000
00000
30030
00000
00010
00100
00001
00000
01000
00000
00000
00001
00000
00000
00100
00000
,
00000
00010
00000
00000
10000
00000
00100
00000
01000
00001
00100
00010
10000
00000
00000
00000
,
10010
00000
00000
00010
10000
00100
01000
00010
00100
00001
01000
00000
01001
00000
00001
00100
,
00010
00100
00001
01000
00001
00100
00010
01000
00100
10000
00010
01000
00200
00000
00000
00300
,
01000
10000
00100
10000
01000
00100
10000
01000
00100
01000
10000
00100
,
01000
00000
00000
00000
10000
00000
00000
00000
00100
00000
00000
00000
10000
00000
00000
00000
01000
00000
00000
00000
00100
00000
00000
00000
10000
00000
00000
01000
00000
00000
00100
00000
00000
00010
00000
00000
20000
00000
00000
00000
00000
00000
00000
00000
00000
30000
00000
00000
,
00010
00001
00100
00001
00010
00100
00001
00010
00100
00010
00001
00100
,
00010
00000
00000
00000
00001
00000
00000
00000
00100
00000
00000
00000
00001
00000
00000
00000
00010
00000
00000
00000
00100
00000
00000
00000
00001
00000
00000
00010
00000
00000
00100
00000
00000
01000
00000
00000
00002
00000
00000
00000
00000
00000
00000
00000
00000
00003
00000
00000
,
10000
00100
10000
00001
00100
00001
01000
00100
01000
00010
00100
00010
10000
00100
10000
00001
00100
00010
01000
00100
01000
00010
00100
00001
,
20000
00000
00000
00000
00000
30000
10101
00000
,
10000
01000
00100
01000
10000
00100
01000
10000
00100
10000
01000
00100
,
10000
00000
00000
00000
01000
00000
00000
00000
00100
00000
00000
00000
01000
00000
00000
00000
10000
00000
00000
00000
00100
00000
00000
00000
01000
00000
00000
10000
00000
00000
00100
00000
00000
00001
00000
00000
01000
00000
00000
00001
00000
00000
00100
00000
00000
00001
00000
00000
,
01000
00000
01000
00000
00110
01000
00010
00000
01000
00000
01000
00000
00110
01000
00010
00000
,
01000
00000
01000
00000
00110
01000
00010
00000
01000
00000
01000
00000
00110
01000
00010
00000
,
10000
00000
10000
00000
00101
10000
00100
00000
10000
00000
10000
00000
00101
10000
00100
00000
,
10000
00000
10000
00000
00101
10000
00100
01000
00010
00100
00001
01000
00010
00100
00001
10000
,
00010
00000
00010
00000
01100
00010
01000
00000
00010
00000
01100
00010
01000
00100
10000
00100
,
01000
00010
00100
00001
01000
00100
01000
00001
01000
00100
10000
00010
00200
00000
00300
00000
,
00001
00100
00001
00100
00001
00100
00010
01000
00010
01000
00010
01000
00100
10000
00100
10000
00100
10000
00001
00100
00001
00100
00001
00100
,
00010
01000
00010
01000
00010
01000
00010
01000
00010
01000
00010
01000
00200
00000
00000
00300
00000
00000
01110
00000
00000
00000
00000
00000
,
00010
00100
00000
00000
01001
00000
00000
00000
00010
00000
10000
00100
00000
01000
00001
00000
,
10000
00100
00000
01000
00001
00000
10000
00000
00010
00100
00010
00100
00010
00000
01100
00000
,
00001
00000
00100
00010
00000
01000
00100
00000
10000
00001
00000
00100
00010
00000
01000
00100
,
10000
01000
00100
00000
00020
00000
00030
00000
01000
10000
00100
00000
00002
00000
00003
00000
,
10000
01000
00100
00000
00010
01000
00100
00000
00010
00001
00100
00000
00010
00001
00100
00000
,
10000
00001
10000
00100
01000
00010
01000
00100
10000
00010
10000
00100
01000
00001
01000
00100
,
20000
30000
00000
00020
00030
00000
02000
03000
00000
00002
00003
00200
00300
00020
00030
00000
,
20000
30000
00002
00003
00000
00200
00300
00000
02020
00000
00000
00000
00000
00000
03030
00000
,
01000
00000
00100
00000
10000
00000
01000
00000
00100
00010
01000
00100
00010
00000
00001
00000
,
00100
00010
00001
00000
00100
00001
00010
00000
00100
00001
00010
00100
01000
00000
00010
00000
,
00100
01000
10000
00000
00100
01000
10000
00000
00100
10000
01000
00100
10000
01000
10000
00100
,
01000
10000
00100
00000
10000
01000
00100
00000
10000
01000
00100
00010
10000
00010
00100
00001
,
01000
00100
10000
00010
00100
00001
01000
00001
00100
00010
10000
00010
00100
00001
01000
00100
10000
00010
10000
00100
01000
00001
01000
00100
,
10000
00001
00100
00010
01000
00100
10000
00100
01000
00010
00100
00001
10000
00100
01000
00001
01000
00100
10000
00010
10000
00100
01000
00010
,
00100
00010
01000
00100
01000
00001
00100
00001
10000
00100
10000
00010
00100
00010
01000
00100
01000
00001
00100
00001
10000
00100
10000
00010
,
00200
00000
00000
00000
00000
00000
00000
00300
,
00010
00000
00100
00000
00001
00000
00010
00000
00100
01000
00010
00100
01000
00000
10000
00000
,
00100
01000
10000
00000
00100
10000
01000
00000
00100
10000
01000
00100
00010
00000
01000
00000
,
00100
00010
00001
00000
00100
00010
00001
00000
00100
00001
00010
00100
00001
00010
00001
00100
,
00010
00001
00100
00000
00001
00010
00100
00000
00001
00010
00100
01000
00001
01000
00100
10000
,
00010
00100
00001
01000
00100
10000
00010
10000
00100
01000
00001
01000
00100
10000
00010
00100
00001
01000
00001
00100
00010
10000
00010
00100
,
00001
10000
00100
01000
00010
00100
00001
00100
00010
01000
00100
10000
00001
00100
00010
10000
00010
00100
00001
01000
00001
00100
00010
01000
,
00100
01000
00010
00100
00010
10000
00100
10000
00001
00100
00001
01000
00100
01000
00010
00100
00010
10000
00100
10000
00001
00100
00001
01000
,
00200
00000
00000
00000
00000
00000
00000
00300
,
01000
00100
00010
00100
01000
00010
00100
00010
01000
00100
00010
00100
01000
00010
00100
00001
,
10000
00100
00001
00100
10000
00001
00100
00001
10000
00100
00001
00100
10000
00001
00100
00010
,
01000
00100
01000
00100
00010
00001
00010
00001
00100
00010
00100
00010
01000
00100
01000
00100
,
10000
01000
00100
01000
10000
00100
01000
10000
00100
10000
01000
00100
10000
01000
00100
00010
,
02000
00000
00000
00000
00000
00000
00000
03000
,
00001
00010
00100
01000
00010
00100
01000
10000
00100
01000
10000
00100
00001
10000
00100
00001
,
00020
00000
00000
00000
00000
00000
00000
00030
,
10000
01000
00100
00010
01000
00100
00010
00001
00100
00010
00001
00100
10000
00001
00100
10000
,
01000
00100
01000
00010
00100
00001
20000
00000
00000
30000
00000
00000
00010
00100
00010
01000
00100
10000
00002
00000
00000
00003
00000
00000
,
10000
00100
10000
00001
00100
00010
02000
00000
00000
03000
00000
00000
00001
00100
00001
10000
00100
01000
00020
00000
00000
00030
00000
00000
,
01000
00100
01000
00001
01000
00100
20000
00000
00000
30000
00000
00000
00010
00100
00010
10000
00010
00100
00002
00000
00000
00003
00000
00000
,
01000
00000
00100
00000
00010
00000
00001
00000
00100
00000
00010
00000
00002
00000
00000
00000
00000
00000
00003
00000
00000
00000
00000
00000
00010
00000
00100
00000
01000
00000
10000
00000
00100
00000
01000
00000
10000
00000
00000
00100
00000
00000
00001
00000
00000
00000
00000
00000
,
00022
00000
00000
00000
,
00000
00000
00000
00033
00011
00000
00000
00000
;

//---------------pump-double - crazydouble----------------
#NOTES:
     pump-double:
     crazydouble:
     Hard:
     25:
     1.000,1.000,0.163,0.576,1.000,769.000,17.000,60.000,0.000,12.000:
0000000000
2000000000
0000000000
0000000000
,
0000000000
0000000000
3210000000
0000000000
,
1320000000
0000000000
0000000000
0000000000
0000000000
0032001000
0000000000
0000000000
,
0000000000
0013200000
0000000000
0000000000
,
0000000000
0000000000
0000320100
0001032000
,
0000000000
0000000000
0000000000
0000000000
,
0000000000
0000000000
0000000220
0000000000
0000000000
0000000000
0000000000
0000000000
0000000000
0000000000
0000000000
0000000000
0000000000
0000000000
0000000000
0000003330
,
0000000000
0000001110
0000000000
0000000000
0000000000
0000000000
0000000000
0000000000
0000000000
0000000000
0000000000
0000000000
0000000000
0000000000
0000000000
0000000000
,
0000000000
0000000000
0000000000
0001000000
0000010000
0000200000
0000000200
0000000000
0000000000
0000000000
0000000000
0000000000
,
0000000000
0000000000
0000000000
0000300300
0000000000
0000000000
0000100000
0000000000
0000001000
0000000000
0020000000
0000000000
0000020000
0000000000
0000000000
0000000000
0000000000
0000000000
0000000000
0000000000
0000000000
0000000000
0000000000
0000000000
,
0000000000
0000000000
0000000000
0030030000
0000000000
0000000000
0001000000
0000000000
0000010000
0000000000
0000200000
0000000000
0000000200
0000000000
0000000000
0000300300
0000000000
0000000000
0000100000
0000000000
0000001000
0000000000
0020000000
0000000000
,
0000020000
0000000000
0000000000
0030030000
0000000000
0000000000
0001000000
0000000000
0000010000
0000000000
0000200000
0000000000
0000000200
0000000000
0000000000
0000000000
0000000000
0000000000
0000000000
0000000000
0000000000
0000000000
0000000000
0000000000
,
0000000000
0000000000
0000000000
0000300300
0000000000
0000000000
0000001000
0000000000
0000100000
0000000000
0000020000
0000000000
0020000000
0000000000
0000000000
0030030000
0000000000
0000000000
0000010000
0000000000
0001000000
0000000000
0000000200
0000000000
,
0000020000
0000000000
0000000000
0000030300
0000000000
0000000000
0000001000
0000000000
0000100000
0000000000
0000020000
0000000000
0020000000
0000000000
0000000000
0030030000
0000000000
0000000000
0000010000
0000000000
0001000000
0000000000
0000000200
0000000000
,
0000200000
0000000000
0000000000
0000000000
0000000000
0000000000
0000300300
0000000000
0000000000
0000000000
0000000000
0000000000
0000001000
0000000000
0000000000
0000000000
0000100000
0000000000
0000000000
0000000000
0000010000
0000000000
0000000000
0000000000
0010000000
0000000000
0000000000
0000000000
0000000000
0000000000
0000000000
0000000000
0000000000
0000100000
0000000000
0000000000
0000000000
0000000000
0000000000
0000000000
0000000000
0000000000
0001000000
0000000000
0000000000
0000000000
0000000000
0000000000
,
0000000000
0000001000
0000000000
0000000000
0000010000
0000000000
0000000100
0000000000
0000001000
0000010000
0000100000
0001000000
0010000000
0000000000
0000000000
0000000000
,
1000100000
0000000000
0000000000
0000100000
1000000000
0010000000
0100000000
0001000000
0010000000
0000100000
0001000000
0000000000
0001001000
0000000000
0000001000
0000010000
,
0000000100
0000001000
0000000001
0000001000
0000000100
0000010000
0000000010
0000010000
0000000100
0000001000
0000010000
0000100000
0002000000
0000000000
0000000000
0000000000
,
0003100000
0001000000
0010000000
0000100000
0001000000
0010000000
0001000000
0000100000
0010000000
0001000000
0000100000
0010000000
,
0000100000
0000000000
0000000000
0000000000
0001000000
0000000000
0000000000
0000000000
0010000000
0000000000
0000000000
0000000000
0000100000
0000000000
0000000000
0000000000
0001000000
0000000000
0000000000
0000000000
0010000000
0000000000
0000000000
0000000000
0001000000
0000000000
0000000000
0000100000
0000000000
0000000000
0010000000
0000000000
0000000000
0001000000
0000000000
0000000000
0000200000
0000000000
0000000000
0000000000
0000000000
0000000000
0000000000
0000000000
0000000000
0000300000
0000000000
0000000000
,
0000010000
0000001000
0000000100
0000010000
0000001000
0000000100
0000001000
0000010000
0000000100
0000001000
0000010000
0000000100
,
0000010000
0000000000
0000000000
0000000000
0000001000
0000000000
0000000000
0000000000
0000000100
0000000000
0000000000
0000000000
0000010000
0000000000
0000000000
0000000000
0000001000
0000000000
0000000000
0000000000
0000000100
0000000000
0000000000
0000000000
0000001000
0000000000
0000000000
0000010000
0000000000
0000000000
0000000100
0000000000
0000000000
0000001000
0000000000
0000000000
0000020000
0000000000
0000000000
0000000000
0000000000
0000000000
0000000000
0000000000
0000000000
0000030000
0000000000
0000000000
,
0001000000
0000001000
0000100000
0000010000
0010000000
0001000000
0000100000
0000010000
0001000000
0000001000
0000010000
0000000100
0001000000
0000001000
0000100000
0000010000
0010000000
0001000000
0000100000
0000010000
0001000000
0000001000
0000010000
0000000100
,
0000002000
0000000000
0000000000
0000000000
0000000000
0000003000
0000011100
0000000000
,
0000000100
0000001000
0000010000
0001000000
0000100000
0010000000
0001000000
0000100000
0000010000
0000001000
0000000100
0000010000
,
0000001000
0000000000
0000000000
0000000000
0001000000
0000000000
0000000000
0000000000
0000100000
0000000000
0000000000
0000000000
0010000000
0000000000
0000000000
0000000000
0001000000
0000000000
0000000000
0000000000
0000100000
0000000000
0000000000
0000000000
0000010000
0000000000
0000000000
0000001000
0000000000
0000000000
0000000100
0000000000
0000000000
0000000010
0000000000
0000000000
0000000001
0000000000
0000000000
0000000100
0000000000
0000000000
0000000001
0000000000
0000000000
0000010000
0000000000
0000000000
,
0000000100
0000000000
0000000100
0000000000
0000001000
0000010000
0000100000
0000000000
0001000000
0000000000
0001000000
0000000000
0010000000
0000100000
0001000000
0000000000
,
0000001000
0000000000
0000001000
0000000000
0000010000
0000000100
0000001000
0000000000
0000010000
0000000000
0000010000
0000000000
0000100000
0001000000
0010000000
0000000000
,
0000100000
0000000000
0000100000
0000000000
0001000000
0010000000
0100000000
0000000000
0001000000
0000000000
0001000000
0000000000
0010000000
0100000000
1000000000
0000000000
,
0010000000
0000000000
0010000000
0000000000
0100000000
1000000000
0010000000
0000100000
0100000000
0010000000
0100000000
0000100000
0100000000
0010000000
0001000000
0000100000
,
0010000000
0000000000
0010000000
0000000000
0001000000
0000100000
0000010000
0000000000
0000001000
0000000000
0000001000
0000000100
0000010000
0000001000
0001000000
0000100000
,
0010000000
0001000000
0000100000
0000010000
0000001000
0000000100
0000001000
0000100000
0000001000
0000000100
0000010000
0000001000
0002000000
0000000000
0003000000
0000000000
,
0000010000
0000100000
0001000000
0010000000
0000010000
0000100000
0000001000
0001000000
0000000100
0000010000
0000001000
0001000000
0000010000
0000100000
0001000000
0010000000
0000010000
0000100000
0000001000
0001000000
0000000100
0000010000
0000001000
0001000000
,
0000010000
0000100000
0001000000
0010000000
0000010000
0000100000
0000001000
0001000000
0000000100
0000010000
0000001000
0001000000
0000200000
0000000000
0000000000
0000300000
0000000000
0000000000
0011100000
0000000000
0000000000
0000000000
0000000000
0000000000
,
0000100000
0010000000
0000000000
0000000000
1001000000
0000000000
0000000000
0000000000
0001000000
0000000000
1000000000
0010000000
0000000000
0100000000
0000100000
0000000000
,
0010000000
0001000000
0000000000
0000100000
0000001000
0000000000
0001000000
0000000000
0000010000
0000001000
0000000100
0000010000
0000001000
0000000000
0000011000
0000000000
,
0000001000
0000000000
0001000000
0000100000
0000000000
0010000000
0001000000
0000000000
0000100000
0000010000
0000000000
0001000000
0000001000
0000000000
0000010000
0000000100
,
0000001000
0000010000
0000100000
0000000000
0002000000
0000000000
0003000000
0000000000
0000010000
0000001000
0001000000
0000000000
0000200000
0000000000
0000300000
0000000000
,
0000001000
0000010000
0000100000
0000000000
0001000000
0010000000
0000100000
0000000000
0001000000
0000001000
0000010000
0000000000
0000000100
0000001000
0000010000
0000000000
,
0000100000
0001000000
0010000000
0000100000
0100000000
0000100000
0010000000
0001000000
1000000000
0010000000
0100000000
0001000000
0010000000
0000100000
0001000000
0000001000
,
0000020000
0000030000
0000000000
0002000000
0003000000
0000000000
0020000000
0030000000
0000000000
0000200000
0000300000
0000002000
0000003000
0000000200
0000000300
0000000000
,
0000020000
0000030000
0000000000
0000002000
0000003000
0002000000
0003000000
0000000000
0002002000
0000000000
0000000000
0000000000
0000000000
0000000000
0003003000
0000000000
,
0010000000
0000000000
0001000000
0000000000
0000100000
0000000000
0000010000
0000000000
0000001000
0000000100
0000010000
0000001000
0000000100
0000000000
0000000010
0000000000
,
0000001000
0000000100
0000000010
0000000000
0000000001
0000000100
0000000010
0000000000
0000000001
0000000010
0000000100
0000000001
0000000010
0000000000
0000000100
0000000000
,
0000001000
0000010000
0000000100
0000000000
0000010000
0000001000
0000000100
0000000000
0000010000
0000001000
0000010000
0000000100
0000001000
0000010000
0000000100
0000010000
,
0000001000
0000000100
0000010000
0000000000
0000001000
0001000000
0000100000
0000000000
0010000000
0001000000
0000010000
0001000000
0000100000
0000010000
0001000000
0000100000
,
0010000000
0001000000
0000100000
0000010000
0001000000
0000001000
0000010000
0000000100
0010000000
0001000000
0000100000
0000010000
0001000000
0000001000
0000010000
0000000100
0010000000
0001000000
0000100000
0000010000
0001000000
0000001000
0000010000
0000000100
,
0010000000
0000100000
0001000000
0000001000
0000100000
0000010000
0000001000
0000000100
0010000000
0000100000
0001000000
0000001000
0000100000
0000010000
0000001000
0000000100
0010000000
0000100000
0001000000
0000001000
0000100000
0000010000
0000001000
0000000100
,
0010000000
0001000000
0000100000
0000010000
0001000000
0000001000
0000010000
0000000100
0010000000
0000100000
0001000000
0000001000
0000100000
0000010000
0000001000
0000000100
0010000000
0001000000
0000100000
0000010000
0001000000
0000001000
0000010000
0000000100
,
0020000000
0000000000
0000000000
0000000000
0000000000
0000000000
0000000000
0030000000
,
0000000100
0000000000
0000001000
0000000000
0000010000
0000000000
0000100000
0000000000
0001000000
0010000000
0000100000
0001000000
0010000000
0000000000
0100000000
0000000000
,
0001000000
0010000000
0100000000
0000000000
1000000000
0010000000
0100000000
0000000000
1000000000
0100000000
0010000000
1000000000
0100000000
0000000000
0010000000
0000000000
,
0001000000
0000100000
0010000000
0000000000
0000100000
0001000000
0010000000
0000000000
0000100000
0001000000
0000100000
0010000000
0001000000
0000100000
0010000000
0000100000
,
0001000000
0010000000
0000100000
0000000000
0001000000
0000001000
0000010000
0000000000
0000000100
0000001000
0000100000
0000001000
0000010000
0000100000
0000001000
0000010000
,
0000000100
0000001000
0000010000
0000100000
0000001000
0001000000
0000100000
0010000000
0000000100
0000001000
0000010000
0000100000
0000001000
0001000000
0000100000
0010000000
0000000100
0000001000
0000010000
0000100000
0000001000
0001000000
0000100000
0010000000
,
0000000100
0000010000
0000001000
0001000000
0000010000
0000100000
0001000000
0010000000
0000000100
0000010000
0000001000
0001000000
0000010000
0000100000
0001000000
0010000000
0000000100
0000010000
0000001000
0001000000
0000010000
0000100000
0001000000
0010000000
,
0000000100
0000001000
0000010000
0000100000
0000001000
0001000000
0000100000
0010000000
0000000100
0000010000
0000001000
0001000000
0000010000
0000100000
0001000000
0010000000
0000000100
0000001000
0000010000
0000100000
0000001000
0001000000
0000100000
0010000000
,
0000000200
0000000000
0000000000
0000000000
0000000000
0000000000
0000000000
0000000300
,
0001000000
0000001000
0001000000
0000001000
0000100000
0000010000
0000100000
0000010000
0001000000
0000001000
0001000000
0000001000
0000100000
0000010000
0000100000
0000010000
,
0001000000
0000100000
0001000000
0000001000
0000100000
0001000000
0000100000
0000010000
0001000000
0000100000
0001000000
0000001000
0000100000
0001000000
0000100000
0000010000
,
0001000000
0000100000
0001000000
0000100000
0000001000
0000010000
0000001000
0000010000
0000100000
0001000000
0000100000
0001000000
0000010000
0000001000
0000010000
0000001000
,
0001000000
0000100000
0010000000
0001000000
0100000000
0010000000
1000000000
0000100000
0010000000
0001000000
0000100000
0000010000
0000001000
0000000100
0000000010
0000000001
,
0000000200
0000000000
0000000000
0000000000
0000000000
0000000000
0000000000
0000000300
,
0000000001
0000000010
0000000100
0000001000
0000000010
0000000100
0000001000
0000010000
0000000100
0000001000
0000010000
0000100000
0001000000
0010000000
0100000000
1000000000
,
0020000000
0000000000
0000000000
0000000000
0000000000
0000000000
0000000000
0030000000
,
1000000000
0100000000
0010000000
0001000000
0100000000
0010000000
0001000000
0000100000
0010000000
0001000000
0000100000
0000010000
0000001000
0000000100
0000000010
0000000001
,
0000010000
0000000100
0000001000
0000000100
0000010000
0000001000
0002000000
0000000000
0000000000
0003000000
0000000000
0000000000
0000100000
0010000000
0001000000
0010000000
0000100000
0001000000
0000020000
0000000000
0000000000
0000030000
0000000000
0000000000
,
0000001000
0000000100
0000010000
0000000100
0000001000
0000010000
0000200000
0000000000
0000000000
0000300000
0000000000
0000000000
0001000000
0010000000
0000100000
0010000000
0001000000
0000100000
0000002000
0000000000
0000000000
0000003000
0000000000
0000000000
,
0001000000
0000010000
0000100000
0000001000
0000010000
0000000100
0000200000
0000000000
0000000000
0000300000
0000000000
0000000000
0000001000
0000100000
0000010000
0001000000
0000100000
0010000000
0000020000
0000000000
0000000000
0000030000
0000000000
0000000000
,
0010000000
0000000000
0001000000
0000000000
0000100000
0000000000
0000010000
0000000000
0000001000
0000000000
0000000100
0000000000
0000020000
0000000000
0000000000
0000000000
0000000000
0000000000
0000030000
0000000000
0000000000
0000000000
0000000000
0000000000
0000000100
0000000000
0000001000
0000000000
0000010000
0000000000
0000100000
0000000000
0001000000
0000000000
0010000000
0000000000
0000100000
0000000000
0000000000
1000000000
0000000000
0000000000
0010000000
0000000000
0000000000
0000000000
0000000000
0000000000
,
0222000000
0000000000
0000000000
0000000000
,
0000000000
0000000000
0000000000
0333000000
0111000000
0000000000
0000000000
0000000000
;

//---------------pump-double - double----------------
#NOTES:
     pump-double:
     double:
     Medium:
     17:
     0.876,1.000,0.230,0.346,1.000,578.000,24.000,36.000,0.000,5.000:
0000000000
0000000002
0000000000
0000000000
,
0000000000
0000000000
0000000023
0000000000
,
0000000230
0000000000
0000000000
0000000000
0000000000
0000002300
0000000000
0000000000
,
0000000000
0000023000
0000000000
0000000000
,
0000000000
0000000000
0000230000
0002300000
,
0000000000
0000000000
0000000000
0000000000
,
0000000000
0000000000
0200000000
0000000000
0000000000
0000000000
0000000000
0000000000
0000000000
0000000000
0000000000
0000000000
0000000000
0000000000
0000000000
0303000000
,
0000000000
0111000000
0000000000
0000000000
0000000000
0000000000
0000000000
0000000000
0000000000
0000000000
0000000000
0000000000
0000000000
0000000000
0000000000
0000000000
,
0000000000
0000000000
0000000000
0000010000
0000100000
0000010000
0020000000
0000000000
0000000000
0000000000
0000000000
0000000000
,
0000000000
0000000000
0000000000
0030000000
0000000000
0000000000
0000100000
0000000000
1000000000
0000000000
0000100000
0000000000
0020000000
0000000000
0000000000
0000000000
0000000000
0000000000
0000000000
0000000000
0000000000
0000000000
0000000000
0000000000
,
0030000000
0000000000
0000000000
0000000000
0000000000
0000000000
0000001000
0000000000
0001000000
0000000000
0000001000
0000000000
0000200000
0000000000
0000000000
0000300000
0000000000
0000000000
0000010000
0000000000
0001000000
0000000000
0000001000
0000000000
,
0000020000
0000000000
0000000000
0000030000
0000000000
0000000000
0000001000
0000000000
0000100000
0000000000
0000010000
0000000000
0002000000
0000000000
0000000000
0000000000
0000000000
0000000000
0003000000
0000000000
0000000000
0000000000
0000000000
0000000000
,
0000000000
0000000000
0000000000
0000000000
0000000000
0000000000
0000010000
0000000000
0001000000
0000000000
0000010000
0000000000
0000002000
0000000000
0000000000
0000003000
0000000000
0000000000
0000000100
0000000000
0000010000
0000000000
0000000010
0000000000
,
0000000200
0000000000
0000000000
0000000300
0000000000
0000000000
0000000010
0000000000
0000010000
0000000000
0000000100
0000000000
0000002000
0000000000
0000000000
0000003000
0000000000
0000000000
0000010000
0000000000
0000100000
0000000000
0000010000
0000000000
,
0002000000
0000000000
0000000000
0000000000
0000000000
0000000000
0003000000
0000000000
0000000000
0000000000
0000000000
0000000000
0000100000
0000000000
0000000000
0000000000
1000000000
0000000000
0000000000
0000000000
0001000000
0000000000
0000000000
0000000000
0000200000
0000000000
0000000000
0000000000
0000000000
0000000000
0000000000
0000000000
0000000000
0000000100
0000000000
0000000000
0000000000
0000000000
0000000000
0000000000
0000000000
0000000000
0000000100
0000000000
0000000000
0000000000
0000000000
0000000000
,
0000000000
0000000100
0000000000
0000000000
0000000100
0000000000
0000300100
0000000000
0000001000
0000010000
0000001000
0000010000
0000001000
0000000000
0000000000
0000000000
,
0000110000
0000000000
0000000000
0000100000
0001000000
0000100000
0001000000
0000100000
0001000000
0000100000
0000010000
0000000000
0000100000
0000000000
0000010000
0000100000
,
0000010000
0000100000
0000001000
0001000000
0000001000
0001000000
0000010000
0000100000
0000010000
0000100000
0000020000
0000030000
0200000000
0000000000
0000000000
0000000000
,
0300100000
0000000000
0000000000
0000000000
0000100000
0010000000
0000000000
0000000000
0010000000
0001000000
0000000000
0000000000
0001000000
0100000000
0000000000
0000000000
,
0100000000
0010000000
0000000000
0000000000
0010000000
1000000000
0000000000
0000000000
1000000000
0000100000
0010000000
0001000000
0000100000
0000010000
0000100000
0000010000
,
0000001000
0000000001
0000000000
0000000000
0000000001
0000000100
0000000000
0000000000
0000000100
0000000010
0000000000
0000000000
0000000010
0000001000
0000000000
0000000000
,
0000001000
0000000100
0000000000
0000000000
0000000100
0000010000
0000000000
0000000000
0000010000
0000001000
0000100000
0000010000
0000100000
0001000000
0010000000
0001000000
,
0000100000
0000002000
0000000000
0000000000
0000000000
0000000000
0000000000
0000000000
0000000000
0000000000
0000000000
0000000000
0000000000
0000000000
0000000000
0000000000
,
0000200000
0000000000
0000000000
0000010000
,
0000313100
0000000000
0000000000
0000000000
,
0000000000
0000000000
0000100000
0000001000
0000000000
0000000000
0000000000
0000000000
0000010000
0000000100
0000010000
0000000000
0000000001
0000000100
0000000001
0000000100
,
0000000010
0000000000
0000001000
0000000000
0000000100
0000000000
0000010000
0000000000
0000001000
0001000000
0000010000
0000100000
0001000000
0000000000
0010000000
0000000000
,
0000100000
0000000000
1000000000
0000000000
0001000000
0000000000
0100000000
0000000000
0000100000
0010000000
0001000000
0000100000
0000010000
0000000000
0000001000
0000000000
,
0000000010
0000000000
0000000100
0000000000
0000000001
0000000000
0000010000
0000000000
0000000100
0000001000
0000010000
0000100000
0001000000
0000000000
0010000000
0000000000
,
0000100000
0000000000
0100000000
0000000000
0001000000
0000000000
0000100000
0000000000
0000010000
0000100000
0000010000
0000000000
0001000000
0000001000
0000100000
0000010000
,
0000001000
0000000000
0000001000
0000000000
0000010000
0000000000
0000000100
0000000000
0000000001
0000000010
0000000100
0000001000
0000010000
0000000000
0000001000
0000000000
,
0000000010
0000000000
0000000100
0000000000
0000000001
0000010000
0000000100
0000000000
0000001000
0000010000
0000100000
0001000000
0010000000
0000100000
0100000000
0001000000
,
2000000000
0000000000
0000000000
0000000000
,
0000000000
0000000000
0000000000
3010100000
,
0000100000
0010000000
0001000000
0000000000
0000100000
0000010000
0001000000
0000000000
0000001000
0000010000
0000000100
0000000000
0000001000
0000010000
0000000100
0000000000
,
0000000001
0000000010
0000000100
0000000000
0000001000
0000000010
0000000100
0000000000
0000001000
0000010000
0000000100
0000000000
0000001000
0000010000
0000100000
0000000000
,
0000010000
0001000000
0000100000
0010000000
0001000000
0100000000
0010000000
1000000000
0001000000
0010000000
0000100000
0001000000
0000001000
0000010000
0000000100
0000001000
,
0000000010
0000000100
0000000001
0000000000
0000000202
0000000000
0000000303
0000000000
0000001000
0000000100
0000010000
0000000000
0000020200
0000000300
0000030000
0000000000
,
0000000100
0000010000
0000001000
0000100000
0000010000
0001000000
0000100000
0010000000
0001000000
0100000000
0001000000
0010000000
0000100000
0100000000
0010000000
1000000000
,
0001000000
0010000000
0001000000
0000100000
0000010000
0000100000
0000010000
0000001000
0000000100
0000001000
0000010000
0000100000
0000010000
0000100000
0001000000
0010000000
,
0000100000
0000000000
0000000000
0001000000
0000000000
0000000000
0000001000
0000000000
0000000000
0000010000
0000000000
0000000100
0000000000
0000001000
0000000000
0000000000
,
0000000001
0000000000
0000000000
0000010000
0000000000
0000000100
0000000000
0000000000
0000001010
0000000000
0000000000
0000000000
0000000000
0000000000
0000000000
0000000000
,
0000000100
0000000000
0000000001
0000000000
0000010000
0000000100
0000001000
0000000000
0000010000
0000100000
0000010000
0000100000
0001000000
0000000000
0010000000
0000000000
,
0000100000
0000000000
1000000000
0000000000
0010000000
0000000000
0100000000
0000000000
0001000000
0010000000
0000100000
0001000000
0000001000
0000000000
0000010000
0000000000
,
0000000101
0000000000
0000001100
0000000000
0001010000
0010000000
0010100000
0000000000
,
0001000000
0010000000
0000100000
0010000000
0001000000
0000100000
0000010000
0000001000
0000000100
0000001000
0000010000
0000001000
0000000100
0000000010
0000000001
0000000100
,
0000000001
0000000000
0000000100
0000000000
0000011000
0000000000
0000001000
0000000100
,
0000010000
0000001000
0001000000
0000000000
0001001000
0000000000
0000001000
0000000000
,
0000100000
0001000000
0101000000
0011000000
,
0010000000
0001000000
0000100000
0000000000
0000010000
0000001000
0000000100
0000000000
0000010000
0000000100
0000010000
0000000100
0000001000
0000010000
0000100000
0000000000
,
0010000000
0000000000
1000000000
0000000000
0000100000
0010000000
0001000000
0000000000
0000100000
0000010000
0000100000
0000010000
0000001000
0000000000
0000000100
0000000000
,
0000010000
0000000000
0000000001
0000000000
0000000100
0000000000
0000000010
0000000000
0000001000
0000000100
0000010000
0000001000
0001000000
0000000000
0000100000
0000000000
,
1010000000
0000000000
0011000000
0000000000
0000101000
0000000000
0000010100
0000000100
,
0000001000
0000000100
0000010000
0000000100
0000001000
0000010000
0000100000
0001000000
0010000000
0001000000
0000100000
0001000000
0010000000
0100000000
1000000000
0010000000
,
1000000000
0000000000
0010000000
0000000000
0001100000
0000000000
0001000000
0010000000
,
0000100000
0001000000
0000001000
0000000000
0001001000
0000000000
0001000000
0000000000
,
0000010000
0000001000
0000001010
0000001100
,
0000000100
0000001000
0000010000
0000000000
0000100000
0001000000
0010000000
0000000000
0000100000
0010000000
0000100000
0010000000
0001000000
0000100000
0000010000
0000000000
,
0010000000
0000100000
0010000000
0000100000
0001000000
0000001000
0001000000
0000001000
0000010000
0000000100
0000010000
0000000100
0000001000
0000000010
0000001000
0000000010
,
0000000100
0000000001
0000000100
0000000001
0000001000
0000000010
0000001000
0000000010
0000010000
0000000100
0000010000
0000000100
0001000000
0000001000
0001000000
0000001000
,
0010000000
0000100000
0010000000
0000100000
0100000000
0001000000
0100000000
0001000000
1000000000
0010000000
1000000000
0010000000
0100000000
0001000000
0100000000
0001000000
,
0010000000
0001000000
0000100000
0000010000
0000001000
0000000100
0000001000
0000010000
0000100000
0001000000
0010000000
0100000000
1000000000
0010000000
0100000000
0001000000
,
0010000000
0000000000
0000000000
0000000000
,
0000000001
0000000010
0000000100
0000001000
0000010000
0000100000
0001000000
0010000000
0100000000
1000000000
0100000000
0010000000
0001000000
0000100000
0000010000
0000001000
,
0000000100
0000000000
0000000000
0000000000
,
1000000000
0100000000
0010000000
0001000000
0000100000
0000010000
0000001000
0000000100
0000000010
0000000001
0000000010
0000000100
0000001000
0000010000
0000100000
0001000000
,
1000000000
0100000000
0010000000
0001000000
0000200000
0000000000
0000300000
0000000000
0000010000
0000001000
0000000100
0000000010
0000000002
0000000000
0000000003
0000000000
,
0000000010
0000000100
0000001000
0000010000
0000200000
0000000000
0000300000
0000000000
0001000000
0010000000
0100000000
1000000000
0200000000
0000000000
0300000000
0000000000
,
0010000000
0001000000
0000200000
0000300000
0000010000
0000001000
0000000200
0000000300
0000000010
0000000001
0000000020
0000000030
0000000100
0000001000
0000020000
0000030000
,
0001000000
0000010000
0000100000
0000001000
0000100000
0000010000
0000100000
0000010000
0001000000
0000010000
0000100000
0000001000
0000100000
0000010000
0000100000
0000010000
,
0020000000
0000000000
0000000000
0000000000
,
0000000000
0000000000
0030110000
0000000000
;

//---------------pump-single - hard_1----------------
#NOTES:
     pump-single:
     hard_1:
     Medium:
     17:
     0.922,1.000,0.086,0.413,1.000,619.000,9.000,43.000,0.000,1.000:
00000
02000
00000
00000
,
00000
00000
03020
00000
,
20030
00000
00000
00000
00000
30002
00000
00000
,
00000
02003
00000
00000
,
00000
00000
03020
20030
,
00000
00000
00000
00000
,
00000
00000
00002
00000
00000
00000
00000
00000
00000
00000
00000
00000
00000
00000
00000
30003
,
00000
10101
00000
00000
00000
00000
00000
00000
00000
00000
00000
00000
00000
00000
00000
00000
,
00000
00000
00000
10000
00010
10000
00002
00000
00000
00000
00000
00000
,
00000
00000
00000
00003
00000
00000
01000
00000
00001
00000
01000
00000
00020
00000
00000
00000
00000
00000
00000
00000
00000
00000
00000
00000
,
00000
00000
00000
00030
00000
00000
10000
00000
00010
00000
10000
00000
00002
00000
00000
00003
00000
00000
01000
00000
00001
00000
01000
00000
,
00020
00000
00000
00030
00000
00000
10000
00000
00010
00000
10000
00000
00002
00000
00000
00000
00000
00000
00000
00000
00000
00000
00000
00000
,
00000
00000
00000
00003
00000
00000
00001
00000
01000
00000
00001
00000
20000
00000
00000
30000
00000
00000
00010
00000
10000
00000
00010
00000
,
02000
00000
00000
03000
00000
00000
00001
00000
01000
00000
00001
00000
20000
00000
00000
30000
00000
00000
00010
00000
10000
00000
00010
00000
,
02000
00000
00000
00000
00000
00000
03000
00000
00000
00000
00000
00000
00001
00000
00000
00000
01000
00000
00000
00000
00001
00000
00000
00000
10000
00000
00000
00000
00000
00000
00000
00000
00000
00100
00000
00000
00000
00000
00000
00000
00000
00000
01000
00000
00000
00000
00000
00000
,
00000
00010
00000
00000
00100
00000
00001
00000
10000
00100
01000
00010
00100
00000
00000
00000
,
00110
00000
00000
00010
01000
00100
10000
00100
01000
00010
00100
00000
00101
00000
00001
00100
,
00010
00100
00001
01000
00001
00100
00010
01000
00100
10000
00010
10000
00200
00000
00000
00300
,
01000
00100
01000
00010
00100
00010
10000
00100
10000
00001
00100
00001
,
01000
00000
00000
00000
00100
00000
00000
00000
10000
00000
00000
00000
00010
00000
00000
00000
00100
00000
00000
00000
00001
00000
00000
00000
01000
00000
00000
00010
00000
00000
00100
00000
00000
00001
00000
00000
20000
00000
00000
00000
00000
00000
00000
00000
00000
30000
00000
00000
,
00010
00100
00010
01000
00100
01000
00001
00100
00001
10000
00100
10000
,
00010
00000
00000
00000
00100
00000
00000
00000
00001
00000
00000
00000
01000
00000
00000
00000
00100
00000
00000
00000
10000
00000
00000
00000
00010
00000
00000
01000
00000
00000
00100
00000
00000
10000
00000
00000
00002
00000
00000
00000
00000
00000
00000
00000
00000
00003
00000
00000
,
00100
00001
00100
00001
10000
00100
01000
00010
00100
00001
00100
00010
01000
00100
10000
00001
,
00200
00000
00000
00000
00000
00300
10001
00000
,
10000
00100
10000
00001
00100
00001
01000
00100
01000
00010
00100
00010
,
10000
00000
00000
00000
00100
00000
00000
00000
01000
00000
00000
00000
00001
00000
00000
00000
00100
00000
00000
00000
00010
00000
00000
00000
10000
00000
00000
00001
00000
00000
00100
00000
00000
00010
00000
00000
01000
00000
00000
00100
00000
00000
10000
00000
00000
00100
00000
00000
,
01000
00000
01000
00000
00100
10000
01000
00000
00100
00000
00100
00000
00010
01000
00100
00000
,
00010
00000
00010
00000
00001
00100
00010
00000
00001
00000
00001
00000
00100
10000
00001
00000
,
00100
00000
00100
00000
10000
01000
00100
00000
10000
00000
10000
00000
01000
00100
00010
00000
,
01000
00000
01000
00000
00100
00010
00001
00100
00010
00100
00001
01000
00010
00100
00001
10000
,
00010
00000
00010
00000
00100
00001
00010
00000
00100
00000
01000
00010
00100
01000
10000
00100
,
01000
00010
00100
00001
01000
00100
01000
00001
01000
00100
10000
00010
00200
00000
00300
00000
,
00001
00100
00001
00000
00000
00000
01000
00100
01000
00000
00000
00000
00010
00100
00010
00000
00000
00000
10000
00100
10000
00000
00000
00000
,
00001
00100
00001
00100
00000
00000
00010
01000
00010
01000
00000
00000
00100
00000
00000
00000
00000
00000
10001
00000
00000
00000
00000
00000
,
00010
00000
00110
00000
01000
00100
10000
00001
,
10000
00100
01000
00010
00100
00001
10000
00010
,
01000
00000
00100
10000
00000
00001
00100
00000
00010
01000
00000
00100
10000
00000
00001
00000
,
10000
01000
00100
00000
00020
00000
00030
00000
01000
10000
00100
00000
00002
00000
00003
00000
,
10000
01000
00100
00000
00010
01000
00100
00000
00010
00001
00100
00000
00010
00001
00100
10000
,
00001
10000
00100
01000
00010
01000
00100
10000
00010
10000
00100
01000
00001
01000
00100
10000
,
00010
00000
00000
01000
00000
00000
00001
00000
00100
00000
00000
00010
00000
00000
10000
00000
,
00001
00000
00100
00000
02020
00000
00000
03030
,
01000
00100
10000
01000
00100
01000
10000
00100
,
01000
10000
00100
10000
01000
00100
10000
01000
,
00100
00010
00100
01000
10000
00100
01000
10000
,
00100
00001
00100
10000
01000
00100
10000
00001
,
01000
00100
10000
00010
00100
00001
01000
00001
00100
00010
10000
00010
00100
00001
01000
00100
,
10000
00010
10000
00100
01000
00001
01000
00100
10000
00001
00100
00010
01000
00100
10000
00100
,
01000
00010
00100
00001
10000
00100
01000
00001
01000
00100
10000
00010
10000
00100
01000
00010
,
00200
00000
00000
00000
00000
00000
00000
00300
,
00010
00100
00001
00010
00100
00010
00001
00100
,
00010
00001
00100
00001
00010
00100
00001
00010
,
00100
01000
00100
00010
00001
00100
00010
00001
,
00100
10000
00100
00001
00010
00100
00001
10000
,
00010
00100
00001
01000
00100
10000
00010
10000
00100
01000
00001
01000
00100
10000
00010
00100
,
00001
01000
00001
00100
00010
10000
00010
00100
00001
10000
00100
01000
00010
00100
00001
00100
,
00010
01000
00100
10000
00001
00100
00010
10000
00010
00100
00001
01000
00001
00100
00010
01000
,
00200
00000
00000
00000
00000
00000
00000
00300
,
01000
00100
01000
00100
10000
01000
00100
01000
10000
00100
10000
00100
01000
10000
00100
10000
,
01000
00100
01000
00100
10000
01000
00100
01000
10000
00100
10000
00100
01000
10000
00100
10000
,
02000
00000
00000
03000
00200
00000
00000
00300
20000
00000
00000
30000
00002
00000
00000
00003
,
01000
00000
00010
00000
00100
00000
00001
00000
01000
00010
00100
00001
01000
00010
00100
00001
,
02000
00000
00000
00000
00000
00000
00000
03000
,
00001
00010
00100
01000
00010
00100
01000
00000
10000
01000
00100
00010
01000
00100
00010
00000
,
00002
00000
00000
00000
00000
00000
00000
00003
,
01000
10000
00100
00001
10000
00100
00001
00000
00010
00001
00100
10000
00001
00100
10000
00000
,
01000
00100
01000
00010
20000
00000
30000
00000
00010
00100
00010
01000
00002
00000
00003
00000
,
10000
00100
10000
00001
02000
00000
03000
00000
00001
00100
00001
10000
00020
00000
00030
00000
,
01000
00100
00010
00100
02000
00000
03000
00000
00010
00100
01000
00100
00020
00000
00030
00000
,
01000
00100
00010
00001
00200
00000
00300
00000
00010
00100
01000
10000
00100
01000
10000
00000
,
22000
00000
00000
00000
,
00000
00000
00000
33000
11000
00000
00000
00000
;
